مشاغبين نت

العاب/برامج/افلام/اغاني/نوكت/اسلاميات/هاكات


    Green Lantern (2011)

    شاطر
    avatar
    AhmedMHIZ 2010
    مشرف
    مشرف

    المساهمات : 76
    تاريخ التسجيل : 28/10/2011
    العمر : 22
    الموقع : google.com

    Green Lantern (2011)

    مُساهمة  AhmedMHIZ 2010 في الأربعاء نوفمبر 02, 2011 10:21 pm



    PLOT:

    A test pilot is granted a mystical green ring that bestows him with otherworldly powers, as well as membership into an intergalactic squadron tasked with keeping peace within the universe.

    INFO:

    Format : AVI
    Format/Info : Audio Video Interleave
    Format profile : OpenDML
    Format settings : rec
    File size : 1.21 GiB
    Duration : 1h 53mn
    Overall bit rate : 1 521 Kbps
    Writing application : AVI-Mux GUI 1.17.8.3, Feb 16 201019:42:50
    Video

    ID : 0

    Format : MPEG-4 Visual
    Format profile : Advanced Simple@L5
    Format settings, BVOP : 1
    Format settings, QPel : No
    Format settings, GMC : No warppoints
    Format settings, Matrix : Default (H.263)
    Muxing mode : Packed bitstream
    Codec ID : XVID
    Codec ID/Hint : XviD
    Duration : 1h 53mn
    Bit rate : 1 320 Kbps
    Width : 640 pixels
    Height : 272 pixels
    Display aspect ratio : 2.35:1
    Frame rate : 23.976 fps
    Color space : YUV
    Chroma subsampling : 4:2:0
    Bit depth : 8 bits
    Scan type : Progressive
    Compression mode : Lossy
    Bits/(Pixel*Frame) : 0.316
    Stream size : 1.05 GiB (87%)
    Writing library : XviD 64
    Audio

    ID : 1

    Format : MPEG Audio
    Format version : Version 1
    Format profile : Layer 3
    Codec ID : 55
    Codec ID/Hint : MP3
    Duration : 1h 53mn
    Bit rate mode : Constant
    Bit rate : 192 Kbps
    Channel(s) : 2 channels
    Sampling rate : 48.0 KHz
    Compression mode : Lossy
    Stream size : 157 MiB (13%)
    Alignment : Aligned on interleaves
    Interleave, duration : 24 ms (0.58 video frame)
    Interleave, preload duration : 192 ms
    Writing library : LAME3.98r
    Encoding settings : -m s -V 4 -q 7 -lowpass 18.6 -b 192

    Pictures









    Download


    Arrow


    عدل سابقا من قبل AhmedMHIZ 2010 في الجمعة نوفمبر 11, 2011 3:19 pm عدل 6 مرات
    avatar
    عادل الزعيم
    المدير العام
    المدير العام

    المساهمات : 104
    تاريخ التسجيل : 20/10/2011
    الموقع : مصر ام الدونيا

    رد: Green Lantern (2011)

    مُساهمة  عادل الزعيم في الخميس نوفمبر 03, 2011 8:06 am

    شكرااااااااااااااا Cool Cool Cool

      الوقت/التاريخ الآن هو الثلاثاء أكتوبر 23, 2018 2:49 am